Login
Username:
Password:
[Signup]
[Recover Account]


Browse Torrents

Poll


You must be logged in to view polls



Latest Torrents
Holby.City.S20E34....
- [Size: 325.44 MB]

Hereditary (2018) ...
- [Size: 1,002.36 MB]

Ackley.Bridge.S02E...
- [Size: 383.36 MB]

Oceans Eight (2018...
- [Size: 864.47 MB]

Pablo.Escobar.2017...
- [Size: 787.52 MB]


Torrent Details For "2036 Origin Unknown 2018 1080p BluRay x264 DTS [MW]"

2036 Origin Unknown 2018 1080p BluRay x264 DTS [MW]

Download this torrent | Magnet Download
Health:
Seeds: 98
Leechers: 259
Completed: 209 
Last Checked: 10-08-2018 13:55:02
External Torrent
Update Stats



Poster
No poster



Details
Name:2036 Origin Unknown 2018 1080p BluRay x264 DTS [MW]
Description:

 


General
Format                                   : Matroska
Format version                           : Version 4 / Version 2
File size                                : 2.20 GiB
Duration                                 : 1 h 34 min
Overall bit rate                         : 3 329 kb/s

Video
ID                                       : 1
Format                                   : AVC
Format/Info                              : Advanced Video Codec
Format profile                           : [email protected]
Format settings                          : CABAC / 4 Ref Frames
Format settings, CABAC                   : Yes
Format settings, RefFrames               : 4 frames
Codec ID                                 : V_MPEG4/ISO/AVC
Duration                                 : 1 h 34 min
Bit rate                                 : 2 600 kb/s
Width                                    : 1 920 pixels
Height                                   : 804 pixels
Display aspect ratio                     : 2.40:1
Frame rate mode                          : Constant
Frame rate                               : 23.976 (24000/1001) FPS
Color space                              : YUV
Chroma subsampling                       : 4:2:0
Bit depth                                : 8 bits
Scan type                                : Progressive
Bits/(Pixel*Frame)                       : 0.070
Stream size                              : 1.70 GiB (77%)
Writing library                          : x264 core 155 r2901 7d0ff22
Default                                  : Yes
Forced                                   : No

Audio
ID                                       : 2
Format                                   : DTS
Format/Info                              : Digital Theater Systems
Codec ID                                 : A_DTS
Duration                                 : 1 h 34 min
Bit rate mode                            : Constant
Bit rate                                 : 756 kb/s
Channel(s)                               : 6 channels
Channel positions                        : Front: L C R, Side: L R, LFE
Sampling rate                            : 48.0 kHz
Frame rate                               : 93.750 FPS (512 SPF)
Bit depth                                : 16 bits
Compression mode                         : Lossy
Stream size                              : 512 MiB (23%)
Language                                 : English
Default                                  : Yes
Forced                                   : No

Menu
00:00:00.000                             : en:00:00:00.000
00:08:47.360                             : en:00:08:47.277
00:16:59.227                             : en:00:16:59.227
00:24:26.215                             : en:00:24:26.090
00:33:56.243                             : en:00:33:56.159
00:43:15.760                             : en:00:43:15.760
00:50:27.149                             : en:00:50:27.149
00:57:13.639                             : en:00:57:13.639
01:05:53.199                             : en:01:05:53.199
01:15:06.252                             : en:01:15:06.127
01:25:14.026                             : en:01:25:14.026
01:32:17.699                             : en:01:32:17.574


 http://pichub.site/image/RTPBR
 http://pichub.site/image/RTsfB
 http://pichub.site/image/RT3hY
 http://pichub.site/image/RTZr6
 http://pichub.site/image/RT1Wt
 http://pichub.site/image/RTHV4

Category:Movies > 1080P Bluray
Lang:English  English
Total Size:2.20 GB
Info Hash:250f5ac2d24a6251e83fb5a92f9bf0f54afe9359
Added By:Freaky
Date Added:10-08-2018 13:54:53
Downloads:117

Ratings:Not Yet Rated (Log in to rate it)


Tracker:
udp://tracker.coppersurfer.tk:6969/announce


File List: 


Comments

No comments still posted

Copyright 2018 DownloadHD -|- Page Generated In 0.573243 secs.
-|- RSS Feed -|- Feed Info