Login
Username:
Password:
[Signup]
[Recover Account]


Browse Torrents

Poll


You must be logged in to view polls



Latest Torrents
18+Breaking.And.Ex...
- [Size: 841.77 MB]

Crazy.Rich.Asians....
- [Size: 1.11 GB]

18+ Loving.Pablo.2...
- [Size: 1.02 GB]

Castle.Rock.S01E07...
- [Size: 759.93 MB]

Castle.Rock.S01E07...
- [Size: 232.99 MB]


Torrent Details For "Perdida 2018.1080p.WEB-DL.x264.AAC.5.1.ESubs.-.DownloadHD"

Perdida 2018.1080p.WEB-DL.x264.AAC.5.1.ESubs.-.DownloadHD

Download this torrent | Magnet Download
Health:
Seeds: 35
Leechers: 71
Completed: 50 
Last Checked: 10-08-2018 17:01:51
External Torrent
Update Stats



Poster
No poster



Details
Name:Perdida 2018.1080p.WEB-DL.x264.AAC.5.1.ESubs.-.DownloadHD
Description:




       

Format                                   : Matroska
Format version                           : Version 4 / Version 2
File size                                : 2.04 GiB
Duration                                 : 1 h 43 min
Overall bit rate                         : 2 819 kb/s
Movie name                               : Perdida 2018.1080p.WEB-DL.x264.AAC.5.1.ESubs.-.DownloadHD

Video
ID                                       : 1
Format                                   : AVC
Format/Info                              : Advanced Video Codec
Format profile                           : [email protected]
Format settings                          : CABAC / 8 Ref Frames
Format settings, CABAC                   : Yes
Format settings, RefFrames               : 8 frames
Codec ID                                 : V_MPEG4/ISO/AVC
Duration                                 : 1 h 43 min
Bit rate                                 : 2 500 kb/s
Width                                    : 1 920 pixels
Height                                   : 800 pixels
Display aspect ratio                     : 2.40:1
Frame rate mode                          : Constant
Frame rate                               : 24.000 FPS
Color space                              : YUV
Chroma subsampling                       : 4:2:0
Bit depth                                : 8 bits
Scan type                                : Progressive

Audio
ID                                       : 2
Format                                   : AAC
Format/Info                              : Advanced Audio Codec
Format profile                           : LC
Codec ID                                 : A_AAC-2
Duration                                 : 1 h 43 min
Bit rate                                 : 317 kb/s
Channel(s)                               : 6 channels
Channel positions                        : Front: L C R, Side: L R, LFE
Sampling rate                            : 48.0 kHz
Frame rate                               : 46.875 FPS (1024 SPF)
Compression mode                         : Lossy
Delay relative to video                  : -21 ms
Stream size                              : 235 MiB (11%)
Title                                    : kiggzmusic.com
Language                                 : Spanish
Text #1
ID                                       : 3
Format                                   : UTF-8
Codec ID                                 : S_TEXT/UTF8
Codec ID/Info                            : UTF-8 Plain Text
Duration                                 : 1 h 35 min
Bit rate                                 : 46 b/s
Count of elements                        : 1117
Stream size                              : 32.8 KiB (0%)
Title                                    : English
Language                                 : English
Default                                  : Yes
Forced                                   : Yes

Text #2
ID                                       : 4
Format                                   : UTF-8
Codec ID                                 : S_TEXT/UTF8
Codec ID/Info                            : UTF-8 Plain Text
Duration                                 : 1 h 36 min
Bit rate                                 : 52 b/s
Count of elements                        : 1331
Stream size                              : 37.0 KiB (0%)
Title                                    : Spanish
Language                                 : Spanish
Default                                  : No
Forced                                   : No

Text #3
ID                                       : 5
Format                                   : UTF-8
Codec ID                                 : S_TEXT/UTF8
Codec ID/Info                            : UTF-8 Plain Text
Duration                                 : 1 h 42 min
Bit rate                                 : 41 b/s
Count of elements                        : 961
Stream size                              : 31.2 KiB (0%)
Title                                    : Portuguese
Language                                 : Portuguese
Default                                  : No
Forced                                   : No

Text #4
ID                                       : 6
Format                                   : UTF-8
Codec ID                                 : S_TEXT/UTF8
Codec ID/Info                            : UTF-8 Plain Text
Duration                                 : 1 h 42 min
Bit rate                                 : 41 b/s
Count of elements                        : 956
Stream size                              : 31.2 KiB (0%)
Title                                    : French
Language                                 : French
Default                                  : No
Forced                                   : No

Text #5
ID                                       : 7
Format                                   : UTF-8
Codec ID                                 : S_TEXT/UTF8
Codec ID/Info                            : UTF-8 Plain Text
Duration                                 : 1 h 42 min
Bit rate                                 : 34 b/s
Count of elements                        : 949
Stream size                              : 26.3 KiB (0%)
Title                                    : Polish
Language                                 : Polish
Default                                  : No
Forced                                   : No



For more Exclusive & Quality Stuff Visit :: DownloadHD

 

Category:Movies > WEB-HD
Lang:Spanish  Spanish
Total Size:2.06 GB
Info Hash:5d1e65a0e03d90d637457d28239c23c9d9556cfb
Added By:Download
Date Added:10-08-2018 13:23:58
Downloads:58

Ratings:Not Yet Rated (Log in to rate it)


Tracker:
udp://tracker.coppersurfer.tk:6969/announce


File List: 


Comments

No comments still posted

Copyright 2018 DownloadHD -|- Page Generated In 1.772754 secs.
-|- RSS Feed -|- Feed Info