Login
Username:
Password:
[Signup]
[Recover Account]


Browse Torrents

Poll


You must be logged in to view polls



Latest Torrents
18+Breaking.And.Ex...
- [Size: 841.77 MB]

Crazy.Rich.Asians....
- [Size: 1.11 GB]

18+ Loving.Pablo.2...
- [Size: 1.02 GB]

Castle.Rock.S01E07...
- [Size: 759.93 MB]

Castle.Rock.S01E07...
- [Size: 232.99 MB]


Torrent Details For "Deadpool 2 2018 Super Duper Cut UNRATED 1080p BluRay x264 DTS [MW]"

Deadpool 2 2018 Super Duper Cut UNRATED 1080p BluRay x264 DTS [MW]

Download this torrent | Magnet Download
Health:
Seeds: 2,758
Leechers: 1,097
Completed: 20,503 
Last Checked: 11-08-2018 14:39:30
External Torrent
Update Stats



Poster
No poster



Details
Name:Deadpool 2 2018 Super Duper Cut UNRATED 1080p BluRay x264 DTS [MW]
Description:


 

General
Format : Matroska
Format version : Version 4 / Version 2
File size : 4.39 GiB
Duration : 2 h 13 min
Overall bit rate : 4 688 kb/s

Video
ID : 1
Format : AVC
Format/Info : Advanced Video Codec
Format profile : [email protected]
Format settings : CABAC / 4 Ref Frames
Format settings, CABAC : Yes
Format settings, RefFrames : 4 frames
Codec ID : V_MPEG4/ISO/AVC
Duration : 2 h 13 min
Bit rate : 3 200 kb/s
Width : 1 920 pixels
Height : 804 pixels
Display aspect ratio : 2.40:1
Frame rate mode : Constant
Frame rate : 23.976 (24000/1001) FPS
Color space : YUV
Chroma subsampling : 4:2:0
Bit depth : 8 bits
Scan type : Progressive
Bits/(Pixel*Frame) : 0.086
Stream size : 2.97 GiB (68%)
Writing library : x264 core 155 r2901 7d0ff22
Default : Yes
Forced : No

Audio
ID : 2
Format : DTS
Format/Info : Digital Theater Systems
Codec ID : A_DTS
Duration : 2 h 13 min
Bit rate mode : Constant
Bit rate : 1 509 kb/s
Channel(s) : 7 channels / 6 channels
Channel positions : Front: L C R, Side: L R, Back: C, LFE / Front: L C R, Side: L R, LFE
Sampling rate : 48.0 kHz
Frame rate : 93.750 FPS (512 SPF)
Bit depth : 24 bits
Compression mode : Lossy
Stream size : 1.41 GiB (32%)
Language : English
Default : Yes
Forced : No

Text
ID : 3
Format : UTF-8
Codec ID : S_TEXT/UTF8
Codec ID/Info : UTF-8 Plain Text
Duration : 2 h 11 min
Bit rate : 64 b/s
Count of elements : 2131
Stream size : 61.9 KiB (0%)
Language : English
Default : Yes
Forced : No


 http://pichub.site/image/RvsB0
 http://pichub.site/image/RvnOb
 http://pichub.site/image/RvP1y
 http://pichub.site/image/Rv9hN
 http://pichub.site/image/Rv1fT
 http://pichub.site/image/Rv3PV


Category:Movies > 1080P Bluray
Lang:English  English
Total Size:4.39 GB
Info Hash:7924a80a98097c2f9b388ce9b0fed3c4bd3e6b55
Added By:Freaky
Date Added:09-08-2018 18:27:48
Downloads:435

Ratings:Not Yet Rated (Log in to rate it)


Tracker:
udp://tracker.coppersurfer.tk:6969/announce


File List: 


Comments

No comments still posted

Copyright 2018 DownloadHD -|- Page Generated In 0.266443 secs.
-|- RSS Feed -|- Feed Info